Home » Hindi Dubbed » Vaasu (Vaasu Naan Pakka Commercial) Hindi Dubbed Movie 720p

Vaasu (Vaasu Naan Pakka Commercial) Hindi Dubbed Movie 720p

Vaasu (Vaasu Naan Pakka Commercial) Hindi Dubbed Movie 720p.mkv

IMDB Link

General
Complete name : Vaasu (Vaasu Naan Pakka Commercial) Hindi Dubbed Movie.mp4
Format : MPEG-4
Format profile : Base Media
Codec ID : isom (isom/iso2/avc1/mp41)
File size : 1.08 GiB
Duration : 1 h 49 min
Overall bit rate : 1 406 kb/s
Movie name : skymovieshd.work
Writing application : Lavf57.83.100

Video
Format : AVC
Format/Info : Advanced Video Codec
Format profile : [email protected]
Format settings, CABAC : Yes
Format settings, RefFrames : 5 frames
Codec ID : avc1
Codec ID/Info : Advanced Video Coding
Duration : 1 h 49 min
Bit rate : 1 280 kb/s
Width : 1 920 pixels
Height : 1 080 pixels
Display aspect ratio : 16:9
Frame rate mode : Constant
Frame rate : 25.000 FPS
Color space : YUV
Chroma subsampling : 4:2:0
Bit depth : 8 bits
Scan type : Progressive
Bits/(Pixel*Frame) : 0.025
Stream size : 996 MiB (90%)

Audio
Format : AAC
Format/Info : Advanced Audio Codec
Format profile : LC
Codec ID : 40
Duration : 1 h 49 min
Bit rate mode : Constant
Bit rate : 128 kb/s
Channel(s) : 2 channels
Channel positions : Front: L R
Sampling rate : 44.1 kHz
Frame rate : 43.066 FPS (1024 SPF)
Compression mode : Lossy
Stream size : 100 MiB (9%)
Title : skymovieshd.work
Language : English
Default : Yes
Alternate group : 1








TheFilesLocker Link

MegaUp Link

OpenLoad Link

UserscLoud Link

ClicknupLoad Link

BDupload Link

UpPom Link

UploadBuzz Link