Home » Hindi Dual Audio » Urban Cannibal Massacre (2013) Dual Audio 720p

Urban Cannibal Massacre (2013) Dual Audio 720p

Urban Cannibal Massacre (2013) Dual Audio 720p

IMDB Link

Complete name : Urban Cannibal Massacre (2013) Dual Audio
Format : MPEG-4
Format profile : Base Media / Version 2
Codec ID : mp42 (mp42)
File size : 588 MiB
Duration : 1 h 56 min
Overall bit rate : 706 kb/s
Codirector : codirector
Production studio : studio

Video
Format : AVC
Format/Info : Advanced Video Codec
Format profile : [email protected]
Format settings, CABAC : Yes
Format settings, RefFrames : 4 frames
Muxing mode : Container [email protected]
Codec ID : avc1
Codec ID/Info : Advanced Video Coding
Duration : 1 h 56 min
Bit rate : 512 kb/s
Width : 720 pixels
Height : 332 pixels
Display aspect ratio : 2.2:1
Frame rate mode : Constant
Frame rate : 25.000 FPS
Color space : YUV
Chroma subsampling : 4:2:0
Bit depth : 8 bits
Scan type : Progressive
Bits/(Pixel*Frame) : 0.086
Stream size : 426 MiB (72%)
Language : English

Audio
Format : AAC
Format/Info : Advanced Audio Codec
Format profile : LC
Codec ID : 40
Duration : 1 h 56 min
Bit rate mode : Constant
Bit rate : 188 kb/s
Channel(s) : 2 channels
Channel positions : Front: L R
Sampling rate : 44.1 kHz
Frame rate : 43.066 FPS (1024 SPF)
Compression mode : Lossy
Stream size : 157 MiB (27%)
Title : Stereo
Language : English
Default : Yes








TheFilesLocker Link

BDupload Link

Indishare Link

Clicknupload Link

openload Link

uploadbuzz Link

uppom Link


Leave a Reply

Your email address will not be published. Required fields are marked *

*