Home » Hindi Dual Audio » Transformers Age of Extinction (2014) Dual Audio Hindi BluRay 720p

Transformers Age of Extinction (2014) Dual Audio Hindi BluRay 720p

Transformers Age of Extinction (2014) Dual Audio Hindi BluRay 720p.mp4

IMDB Link

General
Complete name : Transformers Age of Extinction (2014) Dual Audio Hindi BluRay.mp4
Format : MPEG-4
Format profile : Base Media / Version 2
Codec ID : mp42 (mp42)
File size : 890 MiB
Duration : 3 h 5 min
Overall bit rate mode : Constant
Overall bit rate : 670 kb/s
Codirector : codirector
Production studio : studio

Video
Format : MPEG-4 Visual
Format settings, BVOP : Yes
Format settings, QPel : No
Format settings, GMC : No warppoints
Format settings, Matrix : Default (H.263)
Codec ID : 20
Duration : 3 h 5 min
Bit rate mode : Constant
Bit rate : 512 kb/s
Width : 720 pixels
Height : 300 pixels
Display aspect ratio : 2.40:1
Frame rate mode : Constant
Frame rate : 29.970 (30000/1001) FPS
Color space : YUV
Bit depth : 8 bits
Scan type : Progressive
Compression mode : Lossy
Bits/(Pixel*Frame) : 0.079
Stream size : 680 MiB (76%)

Audio
Format : AAC
Format/Info : Advanced Audio Codec
Format profile : LC
Codec ID : 40
Duration : 3 h 5 min
Source duration : 3 h 5 min
Bit rate mode : Constant
Bit rate : 153 kb/s
Channel(s) : 2 channels
Channel positions : Front: L R
Sampling rate : 44.1 kHz
Frame rate : 43.066 FPS (1024 SPF)
Compression mode : Lossy
Stream size : 203 MiB (23%)
Source stream size : 203 MiB (23%)
Title : Stereo
Language : English








indishare Link

TheFilesLocker Link

MegaUp Link

UserscLoud Link

ClicknupLoad Link

BDupload Link

UpPom Link

UploadBuzz Link