Home » Hindi Dubbed » The Real Jackpot 2 (Indrajith 2019) Hindi Dubbed Movie 720Rip

The Real Jackpot 2 (Indrajith 2019) Hindi Dubbed Movie 720Rip

The Real Jackpot 2 (Indrajith 2019) Hindi Dubbed Movie 720Rip.mkv

IMDB Link

General
Complete name : The Real Jackpot 2 (Indrajith 2019) Hindi Dubbed Movie.mp4
Format : MPEG-4
Format profile : Base Media
Codec ID : isom (isom/iso2/avc1/mp42)
File size : 1.20 GiB
Duration : 2 h 3 min
Overall bit rate : 1 391 kb/s
Writing application : Lavf55.33.100

Video
Format : AVC
Format/Info : Advanced Video Codec
Format profile : [email protected]
Format settings, CABAC : Yes
Format settings, RefFrames : 4 frames
Codec ID : avc1
Codec ID/Info : Advanced Video Coding
Duration : 2 h 3 min
Bit rate : 1 200 kb/s
Width : 540 pixels
Height : 300 pixels
Display aspect ratio : 16:9
Frame rate mode : Constant
Frame rate : 25.000 FPS
Color space : YUV
Chroma subsampling : 4:2:0
Bit depth : 8 bits
Scan type : Progressive
Bits/(Pixel*Frame) : 0.296
Stream size : 1.03 GiB (86%)

Audio
Format : AAC
Format/Info : Advanced Audio Codec
Format profile : LC
Codec ID : 40
Duration : 2 h 3 min
Bit rate mode : Constant
Bit rate : 192 kb/s
Channel(s) : 2 channels
Channel positions : Front: L R
Sampling rate : 44.1 kHz
Frame rate : 43.066 FPS (1024 SPF)
Compression mode : Lossy
Stream size : 170 MiB (14%)
Default : Yes
Alternate group : 1








TheFilesLocker Link

MegaUp Link

OpenLoad Link

ClicknupLoad Link

BDupload Link

UpPom Link

UploadBuzz Link