Home » Hindi Dubbed » The Legend of Cocaine Island (2018) Hindi Dual Audio 720p

The Legend of Cocaine Island (2018) Hindi Dual Audio 720p

The Legend of Cocaine Island (2018) Hindi Dual Audio 720p.mkv

IMDB Link

General
Complete name : The Legend of Cocaine Island (2018 Hindi Dual Audio.mp4
Format : MPEG-4
Format profile : Base Media / Version 2
Codec ID : mp42 (mp42)
File size : 437 MiB
Duration : 1 h 50 min
Overall bit rate mode : Constant
Overall bit rate : 552 kb/s
Codirector : codirector
Production studio : studio

Video
Format : MPEG-4 Visual
Format settings, BVOP : Yes
Format settings, QPel : No
Format settings, GMC : No warppoints
Format settings, Matrix : Default (H.263)
Codec ID : 20
Duration : 1 h 50 min
Bit rate mode : Constant
Bit rate : 383 kb/s
Width : 400 pixels
Height : 250 pixels
Display aspect ratio : 16:10
Frame rate mode : Constant
Frame rate : 25.000 FPS
Color space : YUV
Bit depth : 8 bits
Scan type : Progressive
Compression mode : Lossy
Bits/(Pixel*Frame) : 0.153
Stream size : 303 MiB (69%)

Audio
Format : AAC
Format/Info : Advanced Audio Codec
Format profile : LC
Codec ID : 40
Duration : 1 h 50 min
Bit rate mode : Constant
Bit rate : 165 kb/s
Channel(s) : 2 channels
Channel positions : Front: L R
Sampling rate : 44.1 kHz
Frame rate : 43.066 FPS (1024 SPF)
Compression mode : Lossy
Stream size : 130 MiB (30%)
Title : Stereo
Language : English
Default : Yes








indishare Link

TheFilesLocker Link

MegaUp Link

OpenLoad Link

UserscLoud Link

ClicknupLoad Link

BDupload Link

UpPom Link

UploadBuzz Link