Home » 18+ Movies » Tara Journey Of Love And Passion (2017) HOT Hindi Movie HDRip 720p

Tara Journey Of Love And Passion (2017) HOT Hindi Movie HDRip 720p

Tara Journey Of Love And Passion (2017) HOT Hindi Movie HDRip 720p.mkv

IMDB Link

General
Complete name : Tara Journey Of Love And Passion (2017) HOT Hindi Movie HDRip.mp4
Format : MPEG-4
Format profile : Base Media / Version 2
Codec ID : mp42 (mp42)
File size : 600 MiB
Duration : 2 h 3 min
Overall bit rate mode : Constant
Overall bit rate : 680 kb/s
Codirector : codirector
Production studio : studio

Video
Format : MPEG-4 Visual
Format settings, BVOP : Yes
Format settings, QPel : No
Format settings, GMC : No warppoints
Format settings, Matrix : Default (H.263)
Codec ID : 20
Duration : 2 h 3 min
Bit rate mode : Constant
Bit rate : 512 kb/s
Width : 680 pixels
Height : 360 pixels
Display aspect ratio : 1.889
Frame rate mode : Constant
Frame rate : 25.000 FPS
Color space : YUV
Bit depth : 8 bits
Scan type : Progressive
Compression mode : Lossy
Bits/(Pixel*Frame) : 0.084
Stream size : 452 MiB (75%)

Audio
Format : AAC
Format/Info : Advanced Audio Codec
Format profile : LC
Codec ID : 40
Duration : 2 h 3 min
Bit rate mode : Constant
Bit rate : 163 kb/s
Channel(s) : 2 channels
Channel positions : Front: L R
Sampling rate : 44.1 kHz
Frame rate : 43.066 FPS (1024 SPF)
Compression mode : Lossy
Stream size : 144 MiB (24%)
Title : Stereo
Language : English
Default : Yes








indishare Link

TheFilesLocker Link

MegaUp Link

OpenLoad Link

UserscLoud Link

ClicknupLoad Link

BDupload Link

UpPom Link

UploadBuzz Link