Home » Hollywood Movies » Spider Man Far From Home (2019) English NEW HDCAM Full Hollywood Movie 720p

Spider Man Far From Home (2019) English NEW HDCAM Full Hollywood Movie 720p

Spider Man Far From Home (2019) English NEW HDCAM Full Hollywood Movie 720p

IMDB Link

General
Complete name : Spider Man Far From Home (2019) English NEW HDCAM Full Hollywood Movie
Format : MPEG-4
Format profile : Base Media / Version 2
Codec ID : mp42 (mp42)
File size : 707 MiB
Duration : 2 h 23 min
Overall bit rate : 689 kb/s
Codirector : codirector
Production studio : studio

Video
Format : AVC
Format/Info : Advanced Video Codec
Format profile : [email protected]
Format settings, CABAC : Yes
Format settings, RefFrames : 4 frames
Muxing mode : Container [email protected]
Codec ID : avc1
Codec ID/Info : Advanced Video Coding
Duration : 2 h 23 min
Bit rate : 527 kb/s
Width : 720 pixels
Height : 302 pixels
Display aspect ratio : 2.40:1
Frame rate mode : Constant
Frame rate : 60.000 FPS
Color space : YUV
Chroma subsampling : 4:2:0
Bit depth : 8 bits
Scan type : Progressive
Bits/(Pixel*Frame) : 0.040
Stream size : 541 MiB (76%)

Audio
Format : AAC
Format/Info : Advanced Audio Codec
Format profile : LC
Codec ID : 40
Duration : 2 h 23 min
Bit rate mode : Constant
Bit rate : 151 kb/s
Channel(s) : 2 channels
Channel positions : Front: L R
Sampling rate : 44.1 kHz
Frame rate : 43.066 FPS (1024 SPF)
Compression mode : Lossy
Stream size : 155 MiB (22%)
Title : Stereo
Language : English
Default : Yes








TheFilesLocker Link

openload Link

BDupload Link

Indishare Link

Clicknupload Link

megaup Link

uploadbuzz Link

uppom.live Link


Leave a Reply

Your email address will not be published. Required fields are marked *

*