Home » Hindi Dubbed » Sniper Legacy Dual Audio Movie 720p

Sniper Legacy Dual Audio Movie 720p

Sniper Legacy Dual Audio Movie 720p.mkv

IMDB Link

General
Complete name : Sniper Legacy Dual Audio.mp4
Format : MPEG-4
Format profile : Base Media
Codec ID : isom (isom/iso2/avc1/mp41)
File size : 316 MiB
Duration : 1 h 38 min
Overall bit rate : 451 kb/s
Writing application : Lavf58.0.100

Video
Format : AVC
Format/Info : Advanced Video Codec
Format profile : [email protected]
Format settings, CABAC : Yes
Format settings, RefFrames : 4 frames
Codec ID : avc1
Codec ID/Info : Advanced Video Coding
Duration : 1 h 37 min
Bit rate : 400 kb/s
Width : 720 pixels
Height : 406 pixels
Display aspect ratio : 16:9
Original display aspect ratio : 16:9
Frame rate mode : Variable
Frame rate : 23.976 (24000/1001) FPS
Minimum frame rate : 23.564 FPS
Maximum frame rate : 24.390 FPS
Color space : YUV
Chroma subsampling : 4:2:0
Bit depth : 8 bits
Scan type : Progressive
Bits/(Pixel*Frame) : 0.057
Stream size : 279 MiB (88%)

Audio
Format : AAC
Format/Info : Advanced Audio Codec
Format profile : HE-AACv2 / HE-AAC / LC
Codec ID : 40
Duration : 1 h 38 min
Duration_LastFrame : -1 ms
Bit rate mode : Constant
Bit rate : 48.0 kb/s
Channel(s) : 2 channels / 2 channels / 2 channels
Channel positions : Front: L R / Front: L R / Front: L R
Sampling rate : 48.0 kHz / 48.0 kHz / 24.0 kHz
Frame rate : 23.438 FPS (1024 SPF)
Compression mode : Lossy
Stream size : 33.6 MiB (11%)
Default : Yes








indishare Link

TheFilesLocker Link

MegaUp Link

openload Link

UserscLoud Link

ClicknupLoad Link

BDupload Link

UpPom Link

UploadBuzz Link