Home » Bengali Movies » Rosogolla (2018) Bengali Movie HDRIp 720p

Rosogolla (2018) Bengali Movie HDRIp 720p

Rosogolla (2018) Bengali Movie HDRIp 720p

IMDB Link

General
Complete name : Rosogolla (2018) Bengali Movie HDRIp
Format : MPEG-4
Format profile : Base Media / Version 2
Codec ID : mp42 (mp42)
File size : 755 MiB
Duration : 2 h 33 min
Overall bit rate : 688 kb/s
Codirector : codirector
Production studio : studio

Video
Format : AVC
Format/Info : Advanced Video Codec
Format profile : [email protected]
Format settings, CABAC : Yes
Format settings, RefFrames : 4 frames
Format settings, GOP : M=3, N=25
Muxing mode : Container [email protected]
Codec ID : avc1
Codec ID/Info : Advanced Video Coding
Duration : 2 h 33 min
Bit rate : 511 kb/s
Width : 720 pixels
Height : 302 pixels
Display aspect ratio : 2.40:1
Frame rate mode : Constant
Frame rate : 25.000 FPS
Color space : YUV
Chroma subsampling : 4:2:0
Bit depth : 8 bits
Scan type : Progressive
Bits/(Pixel*Frame) : 0.094
Stream size : 561 MiB (74%)

Audio
Format : AAC
Format/Info : Advanced Audio Codec
Format profile : LC
Codec ID : 40
Duration : 2 h 33 min
Bit rate mode : Constant
Bit rate : 171 kb/s
Channel(s) : 2 channels
Channel positions : Front: L R
Sampling rate : 44.1 kHz
Frame rate : 43.066 FPS (1024 SPF)
Compression mode : Lossy
Stream size : 187 MiB (25%)
Title : Stereo
Language : English
Default : Yes








TheFilesLocker Link

openload Link

BDupload Link

Indishare Link

Clicknupload Link

uploadbuzz Link

uppom.live Link


Leave a Reply

Your email address will not be published. Required fields are marked *

*