Home » Hindi Dual Audio » Raja The Great (Raja Rajathan) Dual Audio Hindi 720p

Raja The Great (Raja Rajathan) Dual Audio Hindi 720p

Raja The Great (Raja Rajathan) Dual Audio Hindi 720p.mp4

IMDB Link

General
Complete name : Raja The Great (Raja Rajathan) Dual Audio Hindi.mp4
Format : MPEG-4
Format profile : Base Media / Version 2
Codec ID : mp42 (mp42)
File size : 776 MiB
Duration : 2 h 54 min
Overall bit rate mode : Constant
Overall bit rate : 622 kb/s
Codirector : codirector
Production studio : studio
ContentType : Unknown Type

Video
Format : MPEG-4 Visual
Format settings, BVOP : Yes
Format settings, QPel : No
Format settings, GMC : No warppoints
Format settings, Matrix : Default (H.263)
Codec ID : 20
Duration : 2 h 54 min
Bit rate mode : Constant
Bit rate : 510 kb/s
Width : 700 pixels
Height : 300 pixels
Display aspect ratio : 2.35:1
Frame rate mode : Constant
Frame rate : 25.000 FPS
Color space : YUV
Bit depth : 8 bits
Scan type : Progressive
Compression mode : Lossy
Bits/(Pixel*Frame) : 0.097
Stream size : 636 MiB (82%)

Audio
Format : AAC
Format/Info : Advanced Audio Codec
Format profile : LC
Codec ID : 40
Duration : 2 h 54 min
Source duration : 2 h 54 min
Bit rate mode : Constant
Bit rate : 107 kb/s
Channel(s) : 2 channels
Channel positions : Front: L R
Sampling rate : 44.1 kHz
Frame rate : 43.066 FPS (1024 SPF)
Compression mode : Lossy
Stream size : 134 MiB (17%)
Source stream size : 134 MiB (17%)
Title : Stereo
Language : English








indishare Link

TheFilesLocker Link

MegaUp Link

UserscLoud Link

ClicknupLoad Link

BDupload Link

UpPom Link

UploadBuzz Link