Home » Hindi Dual Audio » National Treasure Book Of Secrets (2007) Hindi Dual Audio 720p

National Treasure Book Of Secrets (2007) Hindi Dual Audio 720p

National Treasure Book Of Secrets (2007) Hindi Dual Audio 720p

Complete name : National Treasure Book Of Secrets (2007) Hindi Dual Audio
Format : MPEG-4
Format profile : Base Media
Codec ID : isom (isom/iso2/avc1/mp42)
File size : 744 MiB
Duration : 2 h 26 min
Overall bit rate : 708 kb/s
Writing application : Lavf55.33.100

Video
Format : AVC
Format/Info : Advanced Video Codec
Format profile : [email protected]
Format settings, CABAC : Yes
Format settings, RefFrames : 4 frames
Codec ID : avc1
Codec ID/Info : Advanced Video Coding
Duration : 2 h 26 min
Bit rate : 512 kb/s
Width : 720 pixels
Height : 302 pixels
Display aspect ratio : 2.40:1
Frame rate mode : Constant
Frame rate : 25.000 FPS
Color space : YUV
Chroma subsampling : 4:2:0
Bit depth : 8 bits
Scan type : Progressive
Bits/(Pixel*Frame) : 0.094
Stream size : 535 MiB (72%)
Writing library : x264 core 132

Audio
Format : AAC
Format/Info : Advanced Audio Codec
Format profile : LC
Codec ID : 40
Duration : 2 h 26 min
Bit rate mode : Constant
Bit rate : 192 kb/s
Channel(s) : 2 channels
Channel positions : Front: L R
Sampling rate : 44.1 kHz
Frame rate : 43.066 FPS (1024 SPF)
Compression mode : Lossy
Stream size : 202 MiB (27%)
Default : Yes








TheFilesLocker Link

BDupload Link

Indishare Link

Clicknupload Link

openload Link

uploadbuzz Link

uppom Link


Leave a Reply

Your email address will not be published. Required fields are marked *

*