Home » Hindi Dubbed » Mera Challenge (Pandem) Hindi Dubbed 720p

Mera Challenge (Pandem) Hindi Dubbed 720p

Mera Challenge (Pandem) Hindi Dubbed 720p.mp4

General
Complete name : Mera Challenge (Pandem) Hindi Dubbed.mp4
Format : MPEG-4
Format profile : Base Media / Version 2
Codec ID : mp42 (mp42)
File size : 628 MiB
Duration : 2 h 10 min
Overall bit rate mode : Constant
Overall bit rate : 676 kb/s
Codirector : codirector
Production studio : studio

Video
Format : MPEG-4 Visual
Codec ID : 20
Duration : 2 h 10 min
Bit rate mode : Constant
Bit rate : 512 kb/s
Width : 720 pixels
Height : 300 pixels
Display aspect ratio : 2.40:1
Frame rate mode : Constant
Frame rate : 25.000 FPS
Color space : YUV
Bit depth : 8 bits
Scan type : Progressive
Compression mode : Lossy
Bits/(Pixel*Frame) : 0.095
Stream size : 476 MiB (76%)

Audio
Format : AAC
Format/Info : Advanced Audio Codec
Format profile : LC
Codec ID : 40
Duration : 2 h 10 min
Bit rate mode : Constant
Bit rate : 159 kb/s
Channel(s) : 2 channels
Channel positions : Front: L R
Sampling rate : 44.1 kHz
Frame rate : 43.066 FPS (1024 SPF)
Compression mode : Lossy
Stream size : 148 MiB (24%)
Title : Stereo
Language : English
Default : Yes








indishare Link

TheFilesLocker Link

MegaUp Link

OpenLoad Link

UserscLoud Link

ClicknupLoad Link

BDupload Link

UpPom Link

UploadBuzz Link