Home » Bollywood Movies » Khamoshi (2019) 720p Ful.mp4

Khamoshi (2019) 720p Ful.mp4

Khamoshi (2019) 720p Ful.mp4

IMDB Link

Complete name : Khamoshi (2019) 720p Ful.mp4
Format : MPEG-4
Format profile : Base Media
Codec ID : isom (isom/iso2/avc1/mp41)
File size : 489 MiB
Duration : 1 h 50 min
Overall bit rate mode : Variable
Overall bit rate : 617 kb/s
Writing application : Lavf57.56.101

Video
Format : AVC
Format/Info : Advanced Video Codec
Format profile : [email protected]
Format settings, CABAC : Yes
Format settings, RefFrames : 4 frames
Codec ID : avc1
Codec ID/Info : Advanced Video Coding
Duration : 1 h 50 min
Bit rate : 485 kb/s
Nominal bit rate : 512 kb/s
Width : 1 280 pixels
Height : 720 pixels
Display aspect ratio : 16:9
Frame rate mode : Constant
Frame rate : 25.000 FPS
Color space : YUV
Chroma subsampling : 4:2:0
Bit depth : 8 bits
Scan type : Progressive
Bits/(Pixel*Frame) : 0.021
Stream size : 384 MiB (79%)

Audio
Format : AAC
Format/Info : Advanced Audio Codec
Format profile : LC
Codec ID : 40
Duration : 1 h 50 min
Duration_LastFrame : -16 ms
Bit rate mode : Variable
Bit rate : 126 kb/s
Maximum bit rate : 128 kb/s
Channel(s) : 2 channels
Channel positions : Front: L R
Sampling rate : 48.0 kHz
Frame rate : 46.875 FPS (1024 SPF)
Compression mode : Lossy
Stream size : 100 MiB (20%)
Language : English
Default : Yes








Downgload Link

Leave a Reply

Your email address will not be published. Required fields are marked *

*