Home » Bollywood Movies » K.G.F (2018) Hindi HDRip – 1080p – x264 – HQ Line

K.G.F (2018) Hindi HDRip – 1080p – x264 – HQ Line

K.G.F (2018) Hindi HDRip – 1080p – x264 – HQ Line

IMDB Link

General
Complete name : K.G.F (2018) Hindi HDRip – 1080p – x264 – HQ Line .mp4
Format : MPEG-4
Format profile : Base Media
Codec ID : isom (isom/iso2/avc1/mp41)
File size : 1.16 GiB
Duration : 3 h 0 min
Overall bit rate mode : Variable
Overall bit rate : 923 kb/s
Encoded date : UTC 2019-02-07 23:19:08
Tagged date : UTC 2019-02-07 23:19:08
Writing application : Lavf51.12.1

Video
Format : AVC
Format/Info : Advanced Video Codec
Format profile : [email protected]
Format settings, CABAC : Yes
Format settings, RefFrames : 1 frame
Format settings, GOP : M=1, N=12
Codec ID : avc1
Codec ID/Info : Advanced Video Coding
Duration : 3 h 0 min
Bit rate mode : Variable
Bit rate : 742 kb/s
Width : 1 080 pixels
Height : 720 pixels
Display aspect ratio : 3:2
Frame rate mode : Constant
Frame rate : 25.000 FPS
Color space : RGB
Chroma subsampling : 4:2:0
Bit depth : 8 bits
Scan type : Progressive
Bits/(Pixel*Frame) : 0.038
Stream size : 957 MiB (80%)
Encoded date : UTC 2019-02-07 23:19:08
Tagged date : UTC 2019-02-07 23:19:08
Color range : Limited
Matrix coefficients : RGB

Audio
Format : AAC
Format/Info : Advanced Audio Codec
Format profile : LC
Codec ID : 40
Duration : 3 h 0 min
Bit rate mode : Variable
Bit rate : 177 kb/s
Channel(s) : 2 channels
Channel(s)_Original : 6 channels
Channel positions : Front: L C R, Side: L R, LFE
Sampling rate : 44.1 kHz
Frame rate : 43.066 FPS (1024 SPF)
Compression mode : Lossy
Stream size : 228 MiB (19%)
Encoded date : UTC 2019-02-07 23:19:08
Tagged date : UTC 2019-02-07 23:19:08








…::: Torrent Download Link Just Click Here toDownload :::…

BDupload Link

Indishare Link

Clicknupload Link

File Flares Link