Home » Hindi Dual Audio » Jack Reacher Never Go Back (2016) Dual Audio Hindi Movie 720p

Jack Reacher Never Go Back (2016) Dual Audio Hindi Movie 720p

Jack Reacher Never Go Back (2016) Dual Audio Hindi Movie 720p.mkv

IMDB Link

General
Complete name : Jack Reacher Never Go Back (2016) Dual Audio Hindi.mp4
Format : MPEG-4
Format profile : Base Media
Codec ID : isom (isom/iso2/avc1/mp42)
File size : 717 MiB
Duration : 2 h 20 min
Overall bit rate : 712 kb/s
Writing application : Lavf55.33.100

Video
Format : AVC
Format/Info : Advanced Video Codec
Format profile : [email protected]
Format settings, CABAC : Yes
Format settings, RefFrames : 4 frames
Codec ID : avc1
Codec ID/Info : Advanced Video Coding
Duration : 2 h 20 min
Bit rate : 512 kb/s
Width : 640 pixels
Height : 384 pixels
Display aspect ratio : 5:3
Frame rate mode : Constant
Frame rate : 25.000 FPS
Color space : YUV
Chroma subsampling : 4:2:0
Bit depth : 8 bits
Scan type : Progressive
Bits/(Pixel*Frame) : 0.083
Stream size : 517 MiB (72%)

Audio
Format : AAC
Format/Info : Advanced Audio Codec
Format profile : LC
Codec ID : 40
Duration : 2 h 20 min
Bit rate mode : Constant
Bit rate : 192 kb/s
Channel(s) : 2 channels
Channel positions : Front: L R
Sampling rate : 44.1 kHz
Frame rate : 43.066 FPS (1024 SPF)
Compression mode : Lossy
Stream size : 194 MiB (27%)
Default : Yes








indishare Link

TheFilesLocker Link

MegaUp Link

openload Link

UserscLoud Link

ClicknupLoad Link

BDupload Link

UpPom Link

UploadBuzz Link