Home » Hindi Dubbed » Amar Akbhar Anthoni (2019) Hindi Dubbed Full HDRip 720p

Amar Akbhar Anthoni (2019) Hindi Dubbed Full HDRip 720p

Amar Akbhar Anthoni (2019) Hindi Dubbed Full HDRip 720p.mp4

IMDB Link

General
Complete name : Amar Akbhar Anthoni (2019) Hindi Dubbed Full HDRip.mp4
Format : MPEG-4
Format profile : Base Media / Version 2
Codec ID : mp42 (mp42)
File size : 790 MiB
Duration : 2 h 35 min
Overall bit rate mode : Constant
Overall bit rate : 709 kb/s
Codirector : codirector
Production studio : studio

Video
Format : MPEG-4 Visual
Format settings, BVOP : Yes
Format settings, QPel : No
Format settings, GMC : No warppoints
Format settings, Matrix : Default (H.263)
Codec ID : 20
Duration : 2 h 35 min
Bit rate mode : Constant
Bit rate : 512 kb/s
Width : 720 pixels
Height : 300 pixels
Display aspect ratio : 2.40:1
Frame rate mode : Constant
Frame rate : 25.000 FPS
Color space : YUV
Bit depth : 8 bits
Scan type : Progressive
Compression mode : Lossy
Bits/(Pixel*Frame) : 0.095
Stream size : 570 MiB (72%)

Audio
Format : AAC
Format/Info : Advanced Audio Codec
Format profile : LC
Codec ID : 40
Duration : 2 h 35 min
Bit rate mode : Constant
Bit rate : 192 kb/s
Channel(s) : 2 channels
Channel positions : Front: L R
Sampling rate : 44.1 kHz
Frame rate : 43.066 FPS (1024 SPF)
Compression mode : Lossy
Stream size : 214 MiB (27%)
Title : Stereo
Language : English








indishare Link

TheFilesLocker Link

MegaUp Link

OpenLoad Link

UserscLoud Link

ClicknupLoad Link

BDupload Link

UpPom Link

UploadBuzz Link

Leave a Reply

Your email address will not be published. Required fields are marked *

*