Home » Hollywood Movies » Hellboy (2019) HDRip 720p

Hellboy (2019) HDRip 720p

Hellboy (2019) HDRip 720p

IMDB Link

General
Complete name : Hellboy (2019) HDRip
Format : MPEG-4
Format profile : Base Media / Version 2
Codec ID : mp42 (mp42)
File size : 664 MiB
Duration : 2 h 11 min
Overall bit rate : 709 kb/s
Codirector : codirector
Production studio : studio

Video
Format : AVC
Format/Info : Advanced Video Codec
Format profile : [email protected]
Format settings, CABAC : Yes
Format settings, RefFrames : 4 frames
Muxing mode : Container [email protected]
Codec ID : avc1
Codec ID/Info : Advanced Video Coding
Duration : 2 h 11 min
Bit rate : 510 kb/s
Width : 720 pixels
Height : 306 pixels
Display aspect ratio : 2.35:1
Frame rate mode : Constant
Frame rate : 25.000 FPS
Color space : YUV
Chroma subsampling : 4:2:0
Bit depth : 8 bits
Scan type : Progressive
Bits/(Pixel*Frame) : 0.093
Stream size : 478 MiB (72%)

Audio
Format : AAC
Format/Info : Advanced Audio Codec
Format profile : LC
Codec ID : 40
Duration : 2 h 11 min
Bit rate mode : Constant
Bit rate : 192 kb/s
Channel(s) : 2 channels
Channel positions : Front: L R
Sampling rate : 44.1 kHz
Frame rate : 43.066 FPS (1024 SPF)
Compression mode : Lossy
Stream size : 180 MiB (27%)
Title : Stereo
Language : English
Default : Yes








TheFilesLocker Link

BDupload Link

Indishare Link

Clicknupload Link

openload Link

uploadbuzz Link

uppom Link


Leave a Reply

Your email address will not be published. Required fields are marked *

*