Home » Hindi Dubbed » Encounter Man 2 (Sankarabrahabam) Hindi Dubbed Movie 720p

Encounter Man 2 (Sankarabrahabam) Hindi Dubbed Movie 720p

Encounter Man 2 (Sankarabrahabam) Hindi Dubbed Movie 720p.mkv

IMDB Link

General
Complete name : Encounter Man 2 (Sankarabrahabam) Hindi Dubbed Movie.mp4
Format : MPEG-4
Format profile : Base Media
Codec ID : isom (isom/iso2/avc1/mp41)
File size : 512 MiB
Duration : 2 h 27 min
Overall bit rate : 483 kb/s
Writing application : Lavf58.0.100

Video
Format : AVC
Format/Info : Advanced Video Codec
Format profile : [email protected]
Format settings, CABAC : Yes
Format settings, RefFrames : 5 frames
Codec ID : avc1
Codec ID/Info : Advanced Video Coding
Duration : 2 h 27 min
Bit rate : 380 kb/s
Width : 720 pixels
Height : 302 pixels
Display aspect ratio : 2.40:1
Original display aspect ratio : 2.40:1
Frame rate mode : Variable
Frame rate : 23.976 (24000/1001) FPS
Minimum frame rate : 23.564 FPS
Maximum frame rate : 24.390 FPS
Color space : YUV
Chroma subsampling : 4:2:0
Bit depth : 8 bits
Scan type : Progressive
Bits/(Pixel*Frame) : 0.073
Stream size : 400 MiB (78%)

Audio
Format : AAC
Format/Info : Advanced Audio Codec
Format profile : LC
Codec ID : 40
Duration : 2 h 27 min
Duration_LastFrame : -3 ms
Bit rate mode : Constant
Bit rate : 98.1 kb/s
Channel(s) : 2 channels
Channel positions : Front: L R
Sampling rate : 44.1 kHz
Frame rate : 43.066 FPS (1024 SPF)
Compression mode : Lossy
Stream size : 104 MiB (20%)
Default : Yes
Alternate group : 1








Indishare Link

TheFilesLocker Link

MegaUp Link

OpenLoad Link

UserscLoud Link

ClicknupLoad Link

BDupload Link

UpPom Link

UploadBuzz Link