Home » Bollywood Movies » Cheat India 2019 HDRip.mp4

Cheat India 2019 HDRip.mp4

Cheat India 2019 HDRip.mp4

IMDB Link

General
Complete name : Cheat India 2019 HDRip.mp4
Format : MPEG-4
Format profile : Base Media / Version 2
Codec ID : mp42 (mp42)
File size : 636 MiB
Duration : 1 h 56 min
Overall bit rate : 762 kb/s
Codirector : codirector
Production studio : studio
ContentType : Unknown Type

Video
Format : AVC
Format/Info : Advanced Video Codec
Format profile : [email protected]
Format settings, CABAC : Yes
Format settings, RefFrames : 1 frame
Format settings, GOP : M=1, N=25
Codec ID : avc1
Codec ID/Info : Advanced Video Coding
Duration : 1 h 56 min
Bit rate : 512 kb/s
Width : 640 pixels
Height : 360 pixels
Display aspect ratio : 16:9
Frame rate mode : Constant
Frame rate : 25.000 FPS
Color space : YUV
Chroma subsampling : 4:2:0
Bit depth : 8 bits
Scan type : Progressive
Bits/(Pixel*Frame) : 0.089
Stream size : 427 MiB (67%)
Language : English
Color range : Limited
Color primaries : BT.709
Transfer characteristics : BT.709
Matrix coefficients : BT.709

Audio
Format : AAC
Format/Info : Advanced Audio Codec
Format profile : LC
Codec ID : 40
Duration : 1 h 56 min
Bit rate mode : Constant
Bit rate : 238 kb/s
Channel(s) : 6 channels
Channel positions : Front: L C R, Side: L R, LFE
Sampling rate : 44.1 kHz
Frame rate : 43.066 FPS (1024 SPF)
Compression mode : Lossy
Stream size : 198 MiB (31%)
Title : Stereo
Language : English
Default : Yes
Alternate group : 1








…::: Torrent Download Link Just Click Here toDownload :::…

BDupload Link

Indishare Link

Clicknupload Link

File Flares Link