Home » Hindi Dual Audio » Avengers Endgame (2019) Hollywood Movie Dual Audio HDRip 720p

Avengers Endgame (2019) Hollywood Movie Dual Audio HDRip 720p

Avengers Endgame (2019) Hollywood Movie Dual Audio HDRip 720p

IMDB Link

Complete name : Avengers Endgame (2019) Hollywood Movie Dual Audio HDRip
Format : MPEG-4
Format profile : Base Media
Codec ID : isom (isom/iso2/avc1/mp42)
File size : 970 MiB
Duration : 3 h 12 min
Overall bit rate mode : Variable
Overall bit rate : 703 kb/s

Video
Format : AVC
Format/Info : Advanced Video Codec
Format profile : [email protected]
Format settings, CABAC : Yes
Format settings, RefFrames : 4 frames
Codec ID : avc1
Codec ID/Info : Advanced Video Coding
Duration : 3 h 12 min
Bit rate : 512 kb/s
Width : 720 pixels
Height : 310 pixels
Display aspect ratio : 2.35:1
Frame rate mode : Constant
Frame rate : 25.000 FPS
Color space : YUV
Chroma subsampling : 4:2:0
Bit depth : 8 bits
Scan type : Progressive
Bits/(Pixel*Frame) : 0.092
Stream size : 707 MiB (73%)
Writing library : x264 core 132

Audio
Format : AAC
Format/Info : Advanced Audio Codec
Format profile : LC
Codec ID : 40
Duration : 3 h 12 min
Bit rate mode : Variable
Bit rate : 183 kb/s
Maximum bit rate : 192 kb/s
Channel(s) : 2 channels
Channel positions : Front: L R
Sampling rate : 44.1 kHz
Frame rate : 43.066 FPS (1024 SPF)
Compression mode : Lossy
Stream size : 253 MiB (26%)
Default : Yes








TheFilesLocker Link

BDupload Link

Indishare Link

Clicknupload Link

openload Link

uploadbuzz Link

uppom Link


Leave a Reply

Your email address will not be published. Required fields are marked *

*