Home » Hindi Dubbed » Angry Sher (Arnmbi 2019) Hindi Dubbed Movie 720p

Angry Sher (Arnmbi 2019) Hindi Dubbed Movie 720p

Angry Sher (Arnmbi 2019) Hindi Dubbed Movie 720p.mkv

IMDB Link

General
Complete name : Angry Sher (Arnmbi 2019) Hindi Dubbed.mp4
Format : MPEG-4
Format profile : Base Media
Codec ID : isom (isom/iso2/avc1/mp41)
File size : 461 MiB
Duration : 2 h 23 min
Overall bit rate : 448 kb/s
Movie name : www.watchonlinemovies.com.pk
Writing application : Lavf57.83.100

Video
Format : AVC
Format/Info : Advanced Video Codec
Format profile : [email protected]
Format settings, CABAC : Yes
Format settings, RefFrames : 4 frames
Codec ID : avc1
Codec ID/Info : Advanced Video Coding
Duration : 2 h 23 min
Bit rate : 380 kb/s
Width : 720 pixels
Height : 306 pixels
Display aspect ratio : 2.35:1
Frame rate mode : Variable
Frame rate : 25.166 FPS
Minimum frame rate : 24.691 FPS
Maximum frame rate : 25.641 FPS
Color space : YUV
Chroma subsampling : 4:2:0
Bit depth : 8 bits
Scan type : Progressive
Bits/(Pixel*Frame) : 0.069
Stream size : 386 MiB (84%)

Audio
Format : AAC
Format/Info : Advanced Audio Codec
Format profile : LC
Codec ID : 40
Duration : 2 h 23 min
Bit rate mode : Constant
Bit rate : 64.4 kb/s
Channel(s) : 2 channels
Channel positions : Front: L R
Sampling rate : 48.0 kHz
Frame rate : 46.875 FPS (1024 SPF)
Compression mode : Lossy
Stream size : 66.2 MiB (14%)
Language : Hindi
Default : Yes
Alternate group : 1








TheFilesLocker Link

MegaUp Link

OpenLoad Link

UserscLoud Link

ClicknupLoad Link

BDupload Link

UpPom Link

UploadBuzz Link