Home » Hollywood Movies » Alita Battle Angel 2019 720p HDCAM[842MB]

Alita Battle Angel 2019 720p HDCAM[842MB]

Alita Battle Angel 2019 720p HDCAM[842MB]

IMDB Link

General
Complete name : Alita Battle Angel 2019 720p HDCAM.mp4
Format : MPEG-4
Format profile : Base Media / Version 2
Codec ID : mp42 (mp42)
File size : 842 MiB
Duration : 2 h 34 min
Overall bit rate : 764 kb/s
Codirector : codirector
Production studio : studio
ContentType : Unknown Type

Video
Format : AVC
Format/Info : Advanced Video Codec
Format profile : [email protected]
Format settings, CABAC : Yes
Format settings, RefFrames : 1 frame
Codec ID : avc1
Codec ID/Info : Advanced Video Coding
Duration : 2 h 34 min
Bit rate : 508 kb/s
Width : 640 pixels
Height : 360 pixels
Display aspect ratio : 16:9
Frame rate mode : Constant
Frame rate : 25.000 FPS
Color space : YUV
Chroma subsampling : 4:2:0
Bit depth : 8 bits
Scan type : Progressive
Bits/(Pixel*Frame) : 0.088
Stream size : 560 MiB (66%)
Language : English
Color range : Limited

Audio
Format : AAC
Format/Info : Advanced Audio Codec
Format profile : LC
Codec ID : 40
Duration : 2 h 34 min
Bit rate mode : Constant
Bit rate : 243 kb/s
Channel(s) : 6 channels
Channel positions : Front: L C R, Side: L R, LFE
Sampling rate : 44.1 kHz
Frame rate : 43.066 FPS (1024 SPF)
Compression mode : Lossy
Stream size : 268 MiB (32%)
Title : Stereo
Language : English
Default : Yes








…::: Torrent Download Link Just Click Here toDownload :::…

BDupload Link

Indishare Link

Clicknupload Link

File Flares Link